#TITLE:Seasons of Asia;
#SUBTITLE:;
#ARTIST:Taiko Project;
#TITLETRANSLIT:;
#SUBTITLETRANSLIT:;
#ARTISTTRANSLIT:;
#CREDIT:;
#BANNER:soa-bn.png;
#BACKGROUND:;
#LYRICSPATH:;
#CDTITLE:cdtitle.png;
#MUSIC:Seasons of Asia - Taiko Project.mp3;
#OFFSET:0.000;
#SAMPLESTART:58.460;
#SAMPLELENGTH:20.000;
#SELECTABLE:YES;
#DISPLAYBPM:150.000;
#BPMS:0.000=75.000,10.000=150.000,42.000=75.000,74.000=150.000,170.000=75.000,186.000=150.000;
#STOPS:;
#BGCHANGES:;
// cache tags:
#FIRSTBEAT:0.000;
#LASTBEAT:316.000;
#SONGFILENAME:Songs/Music V.I.P ^_^/Seasons of Asia - Taiko Project/Seasons of Asia - Taiko Project.sm;
#HASMUSIC:1;
#HASBANNER:1;
#MUSICLENGTH:149.136;
// end cache tags

//---------------dance-single - ----------------
#NOTES:
     dance-single:
     :
     Hard:
     13:
     1.000,1.000,1.000,1.000,0.231,587.000,242.000,284.000,0.000,182.000:
1001
0000
0100
0010
0100
1000
0100
0001
0000
1000
0100
0010
0001
1000
0100
0000
,
0001
0000
0001
0100
1000
0100
0001
0020
0000
0000
0000
0000
0230
0000
0000
0000
,
0000
0000
0000
0000
2302
0000
3103
0010
,
0010
0200
0000
2302
0000
3013
0100
1000
,
0010
0200
0000
2302
0000
3013
0100
1000
,
0100
0010
1000
0001
0010
0100
0010
0100
,
1000
0010
0100
0100
1001
0000
1001
0100
,
0010
0200
0000
2302
0000
3013
0001
0100
,
1000
0200
0000
2320
0000
3031
0100
0010
,
1000
0100
0001
1000
0100
0010
0001
1000
,
0010
0000
0100
0000
0001
0000
1000
0000
0201
0000
2301
0000
3201
0000
2301
0010
,
3200
0001
2310
0000
3210
0302
0103
2010
0000
0000
3120
0000
0231
0320
1000
0100
,
2030
0000
0001
0000
0010
0000
0000
0000
0001
0000
0010
0000
3001
0000
0010
0001
0201
0000
0000
0000
0312
0000
0000
0000
0213
0000
1000
0000
0320
0000
0100
0000
,
2030
0000
3021
0000
1230
2301
0000
3201
0000
0010
0302
0000
0023
0230
0000
0000
,
0000
0000
0000
0000
2300
0000
0000
0000
0001
0000
0001
0000
3001
0000
0100
0010
2010
0000
0000
0000
3201
0000
0000
0000
0312
0000
0000
0000
1023
0000
0000
0000
,
2130
0000
3201
0000
1302
2003
0010
3102
0000
0003
1200
0000
0312
0023
1000
0132
,
0000
0000
0000
0000
0213
0000
0000
0000
1302
0000
2103
0000
3102
0000
0010
0010
2013
0000
0000
0000
3021
0000
0000
0000
0132
0000
0000
0000
0213
0000
0000
0000
,
1320
0000
1032
0000
2103
3012
0000
0213
0000
0000
1302
0000
2010
3123
0000
0032
,
0000
0000
0000
0000
1000
1000
1000
0010
0103
0000
1000
0000
0100
0000
0010
0000
,
0001
0020
0000
2131
0101
3010
1000
0100
,
0010
0001
0020
1100
1130
1000
0100
0010
,
1000
0010
0002
0110
0113
0010
1000
0100
,
0010
0002
0010
2013
0110
3110
0001
0010
,
0100
0001
2010
0101
3101
0010
0100
1000
,
0010
0000
0100
0000
0001
0000
0110
0000
0110
0000
0112
0003
1002
0003
0102
0003
,
0012
0003
0102
0003
1002
0003
0102
0003
0012
0003
0102
0003
1002
0003
0102
0003
,
0012
0100
0010
0100
2013
0100
0010
0100
3212
0000
0000
0000
0313
0000
0100
0000
,
0010
0200
0001
2302
0000
3013
0100
0010
,
0100
0020
0100
2032
0000
3013
0100
1000
,
0010
0001
0100
0010
1000
0100
0010
0001
,
0010
1000
0100
0010
1001
0000
1001
0010
,
0100
2000
0010
3202
0000
1303
0100
0010
,
0100
0002
0100
2023
0000
3130
0010
0001
,
0100
0010
0001
0100
0010
0001
1000
0100
,
0010
0100
0010
0100
0010
0100
0010
0100
2020
0000
0000
3030
0202
0000
0000
0303
,
1001
0000
0202
0000
0000
0303
2020
0000
0000
0000
3030
0000
2002
0000
0000
3003
,
2020
0000
0202
3030
0000
0000
2020
0303
0101
3030
0000
0000
1001
0000
0000
0000
,
0101
0020
0000
0000
0230
0000
0002
0000
,
0323
0000
0000
0000
0231
0010
0001
0010
2301
0000
3201
0000
0321
0000
0231
0000
,
2301
3201
0321
0231
2301
3201
0321
0231
,
2301
3201
0321
0231
2301
3000
1002
0003
,
2001
3220
0000
2332
0000
3003
1001
0000
,
1001
0010
0100
1000
1020
0100
0001
1000
,
0100
1230
0321
2030
3102
0010
0100
2103
,
3012
0100
1003
0210
2310
0001
0010
0100
,
0001
3102
2103
3210
0321
0100
1000
1032
,
0123
1000
0001
0130
2002
3013
0220
0331
,
0022
0133
2002
3013
2200
3310
0022
1033
,
0220
1330
0022
0133
2020
3031
2020
3130
,
2020
3031
2200
3310
2200
3301
0022
0133
,
2002
3013
2200
3301
0022
0133
2200
3310
,
0022
0133
2002
3013
0202
1303
0122
0133
,
2002
0000
3103
0000
0022
0000
0133
0000
2012
0100
0010
0100
0010
0100
0010
0100
,
0010
0100
0010
0100
0010
0100
0010
0100
3223
0000
0000
0000
0000
0000
0000
0000
,
0000
0000
0000
0000
2332
0000
3103
0010
,
1010
0200
0010
2302
0000
3013
0100
1000
,
0010
0200
0010
2302
0000
3013
0100
1000
,
0100
0010
1000
0001
0010
0100
0010
0100
,
1000
0000
0010
0000
0100
0000
0100
0100
1001
0000
0000
0000
1001
0000
0100
0000
,
1010
0200
0010
2302
0000
3013
0001
0100
,
1000
0200
0001
2320
0000
3031
0100
0010
,
1000
0100
0001
1000
0100
0010
0001
1000
,
0001
0100
0010
1000
0001
0100
0010
1000
0202
0000
0000
0303
2020
0000
0000
3030
,
1001
0000
0220
0000
0000
0330
2002
0000
0000
0000
0000
3003
0220
0000
0000
0330
,
1001
0000
0220
0000
0000
0330
2002
0000
0000
0000
0000
3003
0101
0000
0000
0000
,
1001
0000
0220
0000
0000
0330
2002
0000
0000
0000
0000
3003
0202
0000
0000
0000
,
0323
0000
0000
0030
0201
0010
0001
0010
1302
0000
1023
0000
1230
0000
1320
0000
,
1032
1023
1230
1320
1032
1023
1230
1320
,
1032
1023
1230
1320
2032
3003
2001
3000
,
1002
0213
0000
2302
0000
0000
3123
0000
,
1030
0100
0010
0100
1001
0001
0001
0001
,
0021
0000
0032
0113
0000
0011
0000
0101
,
0000
0000
0011
0000
0000
0000
0100
1000
0101
0000
0000
0000
1001
0000
0000
0000
,
1100
1001
0000
1010
0000
0000
1100
0000
,
1001
0100
1001
0000
1001
1001
1001
1001
,
1001
0000
1001
0110
0000
1001
0000
1001
,
0010
0000
0002
0000
1000
0100
1003
0100
1010
0000
1010
0000
1010
0000
0101
0000
,
1010
1010
1010
1010
0000
0101
0000
0101
,
0000
2002
0000
0000
3223
0000
0000
0000
,
0330
0000
0000
0000
;
